Diễn đàn Đà KTVBenTre
Trang chủDiễn đànNghe nhạcTìm kiếmLiên hệ
 

:: Quên mật khẩu ::

928 Số bài - 47%
 
Admin
225 Số bài - 11%
 
lct90
196 Số bài - 10%
 
thanhproit
178 Số bài - 9%
 
chauthanh
147 Số bài - 7%
 
heartbeat1992
145 Số bài - 7%
 
meohoanbt
76 Số bài - 4%
 
luyenlvtm88
36 Số bài - 2%
 
titoetn
29 Số bài - 1%
 
baobaounin
19 Số bài - 1%
 
kieutuananhvodoi

Các bài gửi mới nhấtNgười gửi cuối


Share
Thu Feb 16, 2012 9:52 pm#1

avatar


xem thêm thông tin
Tổng số bài gửi Tổng số bài gửi : 196
Tham gia : 04/12/2011
Tổng số bài gửi Tổng số bài gửi : 196
Tham gia : 04/12/2011
Bài gửi [Fshare][Võ Thuật | 1 link] The Flying Swords of Dragon Gate (2011) 1080p WEB-DL x264 AC3


Nội dung :
Tên phim : Long men fei jia
Tên khác: New Dragon Gate Inn (International) (working title, English title), The Flying Swords of Dragon Gate (International) (imdb display title, English title)
Năm sản xuất: 2011
Thời lượng: 121 phút
Đánh giá: 6.7
Ngôn ngữ:
Quốc gia: China
Thể loại: Võ thuật | Hành động
Đạo diễn: Hark Tsui
Kịch bản: Hark Tsui
Sản xuất: Jeffrey Chan, Jeffrey Chan, Nansun Shi, Hark Tsui, Dong Yu
Âm nhạc: Wai Lap Wu







Lấy bối cảnh thời nhà Minh (1368 - 1644), nhân vật chính của Long
Môn Phi Giáp là Triệu Hoài An (Lý Liên Kiệt) - người anh hùng võ hiệp
luôn chống lại những tên quan tham ô. Chuyện phim bắt đầu từ người tì nữ
bỏ trốn (Phạm Hiểu Huyên) có thể mang trong mình long chủng hoàng đế.
Vạn Vạn quý phi sai thủ lĩnh đại nội mật thám Vũ Hoa Điền (Trần Khôn) đi
truy lùng người tì nữ để tiêu diệt cốt nhục trong bụng cô. Tuy nhiên,
Lăng Nhạn Thu (Châu Tấn), một nữ hiệp giang hồ đã giả danh là người hùng
Triệu Hoài An, ra tay cứu và đưa người tì nữ bỏ trốn tới Long Môn - một
vùng sa mạc rộng lớn, khắc nghiệt.
Vũ Hoa Điền đưa quân lính tới Long Môn để truy bắt người tì nữ và Triệu
Hoài An giả. Tại đây, các bang hội và công chúa phiên bang (Quế Luân Mỹ)
đang chờ bão cát để săn lùng một kho báu cất giấu trong một vương quốc
cổ xưa bị chôn vùi dưới cát bụi. Tất cả gặp nhau tại Long Môn khách điếm
- nơi luôn xảy ra những xung đột, đấu tranh tàn khốc giữa các phe phái,
bang hội. Một cuộc chiến "mèo vờn chuột" bắt đầu diễn ra giữa các thế
lực, với mỗi người có một mục đích và lý tưởng khác nhau. Điểm chung là
họ cùng bị kẹt lại tại Long Môn khách điếm. Những bí mật về thân thế của
từng nhân vật dần được hé lộ...



Screenshot :






Media Info :
Complete name : The Flying Swords of Dragon Gate (2011) 1080p WEB-DL x264 AC3-danbao__tmanhvu91(DGCT).mkv
Format : Matroska
Format version : Version 2
File size : 3.11 GiB
Duration : 2h 2mn
Overall bit rate : 3 638 Kbps
Movie name : 龙门飞甲
Encoded date : UTC 2012-02-10 08:43:51
Writing application : mkvmerge v4.0.0 ('The Stars were mine') 编译于 Jun 6 2010 16:18:42
Writing library : libebml v1.0.0 + libmatroska v1.0.0


Video
ID : 1
Format : AVC
Format/Info : Advanced Video Codec
Format profile : High@L4.1
Format settings, CABAC : Yes
Format settings, ReFrames : 4 frames
Codec ID : V_MPEG4/ISO/AVC
Duration : 2h 2mn
Bit rate : 3 437 Kbps
Width : 1 920 pixels
Height : 812 pixels
Display aspect ratio : 2.35:1
Frame rate : 24.000 fps
Color space : YUV
Chroma subsampling : 4:2:0
Bit depth : 8 bits
Scan type : Progressive
Bits/(Pixel*Frame) : 0.092
Stream size : 2.94 GiB (94%)
Title : 龙门飞甲
Writing library : x264 core 104 r1688 0b36c6d
Encoding settings : cabac=1 / ref=3 / deblock=1:0:0 / analyse=0x3:0x113 / me=hex / subme=7 / psy=1 / psy_rd=1.00:0.00 / mixed_ref=1 / me_range=16 / chroma_me=1 / trellis=1 / 8x8dct=1 / cqm=0 / deadzone=21,11 / fast_pskip=1 / chroma_qp_offset=-2 / threads=12 / sliced_threads=0 / nr=0 / decimate=1 / interlaced=0 / constrained_intra=0 / bframes=3 / b_pyramid=2 / b_adapt=1 / b_bias=0 / direct=1 / weightb=1 / open_gop=0 / weightp=2 / keyint=250 / keyint_min=24 / scenecut=40 / intra_refresh=0 / rc_lookahead=40 / rc=crf / mbtree=1 / crf=23.0 / qcomp=0.60 / qpmin=10 / qpmax=51 / qpstep=4 / ip_ratio=1.40 / aq=1:1.00
Language : Chinese
Default : Yes
Forced : No


Audio
ID : 2
Format : AC-3
Format/Info : Audio Coding 3
Mode extension : CM (complete main)
Codec ID : A_AC3
Duration : 2h 2mn
Bit rate mode : Constant
Bit rate : 128 Kbps
Channel(s) : 2 channels
Channel positions : Front: L R
Sampling rate : 48.0 KHz
Bit depth : 16 bits
Compression mode : Lossy
Stream size : 112 MiB (4%)
Title : 国语
Language : Chinese
Default : Yes
Forced : No

Link download Fshare ~ 3G :










The_Flying_Swords_of_Dragon_Gate_(2011)_1080p_WEB-DL_x264_AC3-danbaotmanhvu91(DGCT).mkv
- Fshare - Dịch vụ chia sẻ, lưu trữ dữ liệu miễn phí tốt nhất




Sub việt :










Vietnamese The Flying Swords of Dragon Gate (龍門飛甲 / Long Môn Phi Giáp / long men fei jia) subtitle - By ivy68 - Subscene

Chữ Ký
[Click để xem chữ kí của thanhproit]
Xem lý lịch thành viên


Trả lời nhanh


Chuyển đến:
Trang 1 trong tổng số 1 trang

Bài viết mới cùng chuyên mục

Bài viết liên quan


Khuyến mãi đặc biệt

Múi giờ GMT. Hiện tại là 09:43 AM.



CNTT 2013 Style 2.0. Designed by (KTV) - Exclusive only KTVBenTre - 2013
Powered by: vBulletin version 3.8.0. Copyright ©2000 - 2013, Jelsoft Enterprises Ltd.
Ghi rõ nguồn "KTV" khi bạn phát hành lại thông tin từ website này.
nước hoa, mỹ phẩm , trang điểm , quà tang, đà lạt, dalat, da lat, kế toán đà lạt, ke toan da lat, hosting, host vietnam, bivn
Free forum | © phpBB | Free forum support | Liên hệ | Report an abuse | Create a blog


Powered by Forumotion® Version 2
Copyright ©2000 - 2012, Jelsoft Enterprises Ltd.
Designed by chauthanh.1990
Diễn đàn Kỹ Thuật Viên Bến Tre.
Địa chỉ: TP Bến Tre - Bến Tre.
Bạn ơi, đăng ký đi Đăng ký