Diễn đàn Đà KTVBenTre
Trang chủDiễn đànNghe nhạcTìm kiếmLiên hệ
 

:: Quên mật khẩu ::

928 Số bài - 47%
 
Admin
225 Số bài - 11%
 
lct90
196 Số bài - 10%
 
thanhproit
178 Số bài - 9%
 
chauthanh
147 Số bài - 7%
 
heartbeat1992
145 Số bài - 7%
 
meohoanbt
76 Số bài - 4%
 
luyenlvtm88
36 Số bài - 2%
 
titoetn
29 Số bài - 1%
 
baobaounin
19 Số bài - 1%
 
kieutuananhvodoi

Các bài gửi mới nhấtNgười gửi cuối


Share
Sat Feb 04, 2012 7:46 am#1

avatar


xem thêm thông tin
Tên thật Tên thật : Châu Thanh
Điện Thoại Điện Thoại : 01678249250
Tổng số bài gửi Tổng số bài gửi : 178
Tham gia : 06/11/2011
Tuổi : 27
Đến từ Đến từ : TP Bến Tre
Tên thật Tên thật : Châu Thanh
Điện Thoại Điện Thoại : 01678249250
Tổng số bài gửi Tổng số bài gửi : 178
Tham gia : 06/11/2011
Tuổi : 27
Đến từ Đến từ : TP Bến Tre
Bài gửi [4s] Spy Kids: All the Time in the World in 4D (2011) m720p Bluray x264 Jewelraz | Sub VN

Pass: Kulee | 4S | 10% Recovery





4Share.vn - Trang chủ - The best File Hosting











1LInk Duy Nhất From Rapidshare











Phim XYZ






SUB VN





Spy Kids: All the Time in the World in 4D - Subtitles - Subscene
















IMDb - Spy Kids: All the Time in the World in 4D (2011)
Movie Title: Spy Kids: All the Time in the World in 4D
Year: 2011
Rated: PG
Released: 19 Aug 2011
Genre: Action/Adventure/Comedy/Family/Sci-Fi
Runtime: 1 hr 29 mins
IMDB Rating: 2.8/10
Cast: Jessica Alba, Jeremy Piven, Joel McHale, Rowan Blanchard
Director: Robert Rodriguez
Writer: Robert Rodriguez
Plot: A retired spy is called back into action, and to bond with her new step-children, she invites them along for the adventure to stop the evil Timekeeper from taking over the world.
Release Name: Spy.Kids.2011.m720p.Bluray.x264.Jewelraz
Filesize: 1.77 GB
Runtime: 1hr 27min 45sec
Bitrate: 2895 kbps
Audio codec: AC3, 48khz, 5:1
Resolution: 1280*720
FPS: 23.98
Language: English
Subtitle: none
Source: 720p Bluray


Encoded date : UTC 2011-11-02 08:21:02
Writing application : mkvmerge v5.0.0 ('Die Wahre Liebe') built on Sep 25 2011 20:33:49
Writing library : libebml v1.2.2 + libmatroska v1.3.0

Video
ID : 1
Format : AVC
Format/Info : Advanced Video Codec
Format profile : High@L4.1
Format settings, CABAC : Yes
Format settings, ReFrames : 9 frames
Muxing mode : Header stripping
Codec ID : V_MPEG4/ISO/AVC
Duration : 1h 27mn
Bit rate : 2 514 Kbps
Width : 1 280 pixels
Height : 720 pixels
Display aspect ratio : 16:9
Frame rate : 23.976 fps
Color space : YUV
Chroma subsampling : 4:2:0
Bit depth : 8 bits
Scan type : Progressive
Bits/(Pixel*Frame) : 0.114
Stream size : 1.50 GiB (85%)
Writing library : x264 core 116 r2074 2641b9e

Audio
ID : 2
Format : AC-3
Format/Info : Audio Coding 3
Mode extension : CM (complete main)
Muxing mode : Header stripping
Codec ID : A_AC3
Duration : 1h 27mn
Bit rate mode : Constant
Bit rate : 384 Kbps
Channel(s) : 6 channels
Channel positions : Front: L C R, Side: L R, LFE
Sampling rate : 48.0 KHz
Bit depth : 16 bits
Compression mode : Lossy
Stream size : 241 MiB (13%)

Chữ Ký
[Click để xem chữ kí của chauthanh]
Xem lý lịch thành viên


Trả lời nhanh


Chuyển đến:
Trang 1 trong tổng số 1 trang

Bài viết mới cùng chuyên mục

Bài viết liên quan


Khuyến mãi đặc biệt

Múi giờ GMT. Hiện tại là 09:43 AM.



CNTT 2013 Style 2.0. Designed by (KTV) - Exclusive only KTVBenTre - 2013
Powered by: vBulletin version 3.8.0. Copyright ©2000 - 2013, Jelsoft Enterprises Ltd.
Ghi rõ nguồn "KTV" khi bạn phát hành lại thông tin từ website này.
nước hoa, mỹ phẩm , trang điểm , quà tang, đà lạt, dalat, da lat, kế toán đà lạt, ke toan da lat, hosting, host vietnam, bivn
Free forum | © phpBB | Free forum support | Liên hệ | Report an abuse | Create a blog


Powered by Forumotion® Version 2
Copyright ©2000 - 2012, Jelsoft Enterprises Ltd.
Designed by chauthanh.1990
Diễn đàn Kỹ Thuật Viên Bến Tre.
Địa chỉ: TP Bến Tre - Bến Tre.
Bạn ơi, đăng ký đi Đăng ký