Diễn đàn Đà KTVBenTre
Trang chủDiễn đànNghe nhạcTìm kiếmLiên hệ
 

:: Quên mật khẩu ::

927 Số bài - 47%
 
Admin
225 Số bài - 11%
 
lct90
196 Số bài - 10%
 
thanhproit
178 Số bài - 9%
 
chauthanh
147 Số bài - 7%
 
heartbeat1992
145 Số bài - 7%
 
meohoanbt
76 Số bài - 4%
 
luyenlvtm88
36 Số bài - 2%
 
titoetn
29 Số bài - 1%
 
baobaounin
19 Số bài - 1%
 
kieutuananhvodoi

Các bài gửi mới nhấtNgười gửi cuối


Share
Mon Jan 09, 2012 8:54 pm#1



xem thêm thông tin
Tổng số bài gửi Tổng số bài gửi : 196
Tham gia : 04/12/2011
Tổng số bài gửi Tổng số bài gửi : 196
Tham gia : 04/12/2011
Bài gửi [MF + Subviet] Kung Fu Panda 2 3D 2011 1080p Audio Viet-Eng BDrip Haft SBS
<blockquote class="postcontent restore ">







IMDb

[You must be registered and logged in to see this link.]

Release Info
Code:
General
Unique ID : 221285116225307034825261194515970624007 (0xA679F6918F156571955CBFDC43398A07)
Complete name : C:\Users\ARiT\Downloads\KungFu Panda 2 3D 2011 1080p Audio Viet-Eng BDrip Haft SBS\KungFu Panda 2 3D 2011 1080p Audio Viet-Eng BDrip Haft SBS.mkv
Format : Matroska
Format version : Version 3 / Version 2
File size : 5.39 GiB
Duration : 1h 30mn
Overall bit rate mode : Variable
Overall bit rate : 8 544 Kbps
Movie name : Kung Fu Panda 2 2011 3D Bluray3DRip
Encoded date : UTC 2011-12-10 17:17:55
Writing application : mkvmerge v4.9.1 ('Ich will') built on Jul 11 2011 23:53:15
Writing library : libebml v1.2.1 + libmatroska v1.1.1

Video
ID : 1
Format : AVC
Format/Info : Advanced Video Codec
Format profile : High@L5.1
MultiView_Count : 2
MultiView_Layout : Side by Side (left eye first)
Format settings, CABAC : Yes
Format settings, ReFrames : 2 frames
Format settings, GOP : M=3, N=24
Codec ID : V_MPEG4/ISO/AVC
Duration : 1h 30mn
Bit rate mode : Variable
Bit rate : 7 286 Kbps
Maximum bit rate : 32.3 Mbps
Width : 1 920 pixels
Height : 1 080 pixels
Display aspect ratio : 16:9
Frame rate : 23.976 fps
Color space : YUV
Chroma subsampling : 4:2:0
Bit depth : 8 bits
Scan type : Progressive
Bits/(Pixel*Frame) : 0.147
Stream size : 4.60 GiB (85%)
Title : 3D HAFT SBS
Language : English
Default : Yes
Forced : Yes

Audio #1
ID : 2
Format : AC-3
Format/Info : Audio Coding 3
Mode extension : CM (complete main)
Muxing mode : Header stripping
Codec ID : A_AC3
Duration : 1h 30mn
Bit rate mode : Constant
Bit rate : 640 Kbps
Channel(s) : 6 channels
Channel positions : Front: L C R, Side: L R, LFE
Sampling rate : 48.0 KHz
Bit depth : 16 bits
Compression mode : Lossy
Stream size : 414 MiB (7%)
Language : Vietnamese
Default : Yes
Forced : Yes

Audio #2
ID : 3
Format : AC-3
Format/Info : Audio Coding 3
Mode extension : CM (complete main)
Muxing mode : Header stripping
Codec ID : A_AC3
Duration : 1h 30mn
Bit rate mode : Constant
Bit rate : 448 Kbps
Channel(s) : 6 channels
Channel positions : Front: L C R, Side: L R, LFE
Sampling rate : 48.0 KHz
Bit depth : 16 bits
Compression mode : Lossy
Stream size : 290 MiB (5%)
Title : AC3 @ 5.1
Language : English
Default : No
Forced : No

Menu
00:00:00.000 : en:(01)00:00:00:000
00:03:53.274 : en:(02)00:03:53:274
00:10:34.342 : en:(03)00:10:34:342
00:16:08.425 : en:(04)00:16:08:425
00:21:14.731 : en:(05)00:21:14:731
00:29:55.627 : en:(06)00:29:55:627
00:36:52.877 : en:(07)00:36:52:877
00:41:13.179 : en:(08)00:41:13:179
00:49:43.814 : en:(09)00:49:43:814
00:54:05.825 : en:(10)00:54:05:825
00:58:53.780 : en:(11)00:58:53:780
01:05:08.195 : en:(12)01:05:08:195
01:11:42.798 : en:(13)01:11:42:798
01:15:30.901 : en:(14)01:15:30:901
01:21:14.786 : en:(15)01:21:14:786
01:30:22.625 : en:(16)01:30:22:625












[You must be registered and logged in to see this link.]
Pass Unlock:[You must be registered and logged in to see this link.]



Subtitle
[You must be registered and logged in to see this link.]


</blockquote>

Chữ Ký
[Click để xem chữ kí của thanhproit]
Xem lý lịch thành viên


Trả lời nhanh


Chuyển đến:
Trang 1 trong tổng số 1 trang

Bài viết mới cùng chuyên mục

Bài viết liên quan


Khuyến mãi đặc biệt

Múi giờ GMT. Hiện tại là 09:43 AM.



CNTT 2013 Style 2.0. Designed by (KTV) - Exclusive only KTVBenTre - 2013
Powered by: vBulletin version 3.8.0. Copyright ©2000 - 2013, Jelsoft Enterprises Ltd.
Ghi rõ nguồn "KTV" khi bạn phát hành lại thông tin từ website này.
nước hoa, mỹ phẩm , trang điểm , quà tang, đà lạt, dalat, da lat, kế toán đà lạt, ke toan da lat, hosting, host vietnam, bivn
Free forum | © phpBB | Free forum support | Liên hệ | Report an abuse | Sosblogs.com


Powered by Forumotion® Version 2
Copyright ©2000 - 2012, Jelsoft Enterprises Ltd.
Designed by chauthanh.1990
Diễn đàn Kỹ Thuật Viên Bến Tre.
Địa chỉ: TP Bến Tre - Bến Tre.
Bạn ơi, đăng ký đi Đăng ký